» » Leng Tch'e - Death By A Thousand Cuts

Leng Tch'e - Death By A Thousand Cuts Album

Genre: Rock
Performer: Leng Tch'e
Title: Death By A Thousand Cuts
Style: Grindcore
Date of release: 2002
FLAC album size: 1274 mb
MP3 album size: 1575 mb

Tracklist

Mosh Of The Clowns1:24
Straight Outta Boerecote1:31
Schizotrendic2:12
Human Ignorance2:21
Get Rid Of The Rock In Your Name1:54
I Know Where You've Shit Last Summer3:27
Delusions Of Grandeur1:14
Chasms0:50
FUCK Eddy De Dapper0:48
Inferior Superiorism0:47
Strangled By Underwear1:23
The Scheme1:07
The Regular Know-It-All1:24
Cockporn1:57
Graveyard Shift0:55
Hypocriscene1:55
T.P.5:01
Initiate Murder Sequence1:01

Versions

CategoryArtistTitle (Format)LabelCategoryCountryYear
TS04Leng Tch'e Death By A Thousand Cuts ‎(CD, Album)The Spew RecordsTS04Italy2002
TS04Leng Tch'e Death By A Thousand Cuts ‎(CD, Album, RP)The Spew RecordsTS04Italy2002

Album

Death By a Thousand Cuts is the full-length debut album from Leng Tch'e. Initiate Murder Sequence 1:01. Strangled by Underwear 1:23. Hypocriscene 1:56. I Know Where You've Shit Last Summer 3:27. FUCK Eddy De Dapper 0:49. Inferior Superiorism 0:47. Get Rid of the Rock in your Name 1:55. Cockporn 1:57. The Regular Know-It-A. Cool razorgrind as they like to call their music band from Ghent, Belgium - since 2001. This is their first full-length album. Released in 2002 by in album Leng Tch'e - Death By A Thousand Cuts 2002. Leng Tch'e - Initiate Murder Sequence. Leng Tch'e - Strangled By Underwear. Leng Tch'e - Hypocriscene. Leng Tch'e - I Know Where You've Shit Last Summer. Leng Tch'e - FUCK Eddy De Dapper. Leng Tch'e - Inferior Superiorism. Leng Tch'e - Get Rid Of The Rock In Your Name. Update Required To play the media you will need to either update your browser to a recent version or update your Flash plugin. Listen free to Leng Tch'e Death by a Thousand Cuts Initiate Murder Sequence, Strangled by Underwear and more. 18 tracks 31:11. A fixture in the European grindcore scene for more than 10 years, LENG TCH'E was formed in 2001 by members of ABORTED and underground cult band ANAL TORTURE. Basing their own hybrid of read more. Leng Tch'e discography all. Pain Is Weakness Leaving the Body, Razorgrind 2002. Death by a Thousand Cuts. Leng Tch'e. Type: Full-length. Co-produced by Leng T'che. Identifiers: Barcode: none Matrix code: . TS04CD 21512 Mastering SID code: IFPI LN11 Mould SID code: none. Added by: Unknown user. Modified by: thetruechaby. Added on: NA. Last modified on: 2019-02-12 09:51:59. Leng Tche. Released 2002. Death by a Thousand Cuts Tracklist. Initiate Murder Sequence Lyrics. Strangled By Underwear Lyrics. Hypocriscene Lyrics. Death by a Thousand Cuts Q&A. More Leng Tche albums. Show all albums by Leng Tche. Death by a Thousand Cuts is the tenth track off of Taylor Swift's seventh studio album, Lover. The film was inspired by the final track on Taylors fifth studio album, 1989, Clean. Taylor has said her favorite line from this song is our songs, our films, united we stand. Our country, guess it was a lawless land. Quiet my fears with the touch of your hand. Paper cut stings from our paper thin plans. Band Name Leng Tch'e. Album Name Death by a Thousand Cuts. Type Album. Released date 2002. Labels The Spew Records. Album starts at BPM, ends at BPM 0, with tempos within the -BPM range. Try refreshing the page if dots are missing. Tracklist Death by a Thousand Cuts. Initiate Murder Sequence. Strangled by Underwear. Death by a Thousand Cuts is a grindcore music album recording by LENG TCH'E released in 2002 on CD, LPVinyl andor cassette. Death By a Thousand Cuts The Spew. Showing 1 items Cache expiring in 72h Keyword-based search Best seller rank More results on . More places to buy metal & LENG TCH'E music

Performer

Leng Tch'e: Belgian grindcore band. The band describes their style as razorgrind, a combination of grindcore with death metal, stoner rock and metalcore. The band's name is an alternate romanisation of lingchi, a method of torture and execution originating from Imperial China that is also known as death by a thousand cuts. Death by a Thousand Cuts is also the name of one of the band's albums. Still From Da Hood, Nothing To Be Proud Of, Fuck Off Coz I Hate You и другие песни. Leng Tch'e. Razor fucking grind est. Find the latest tracks, albums, and images from Leng Tch'e. A fixture in the European grindcore scene for more than 10 years, LENG TCH'E was formed in 2001 by members of ABORTED and underground cult band ANAL TORTURE. Basing their own hybrid of grindcore on bands such as REGURGITATE, HEMDALE, NASUM and BLOOD DUSTER and mixing it all up with some stoner, rock, hardcore influences, the band baptized their own unique style, now known as razorgrind. Leng Tch'e is a Belgian grindcore band. The band's name is an alternate romanisation of língchí, a method of torture and execution originating from Imperial China that is also known as death by a thousand cuts. 2007 г. LENG TCH'E - 1-800-Apathy official music video taken from the album 'Marasmus' SUBSCRIBE: http:. 1-800-Apathy. The Orchard Music от лица. Leng Tch'e: Still From Da Hood, Nothing To Be Proud Of, Fuck Off Coz I Hate You и другие песни. The Process of Elimination - Leng Tch'e. Лента с персональными рекомендациями и музыкальными новинками, радио, подборки на любой вкус, удобное управление своей. Leng Tch'e Фото исполнителя Leng Tch'e. All songs by Leng Tch'e. The Process Of Elimination. PERFORMER Leng Tch'e INDEX 01 06:38:68 TRACK 07 AUDIO TITLE Time Is Against Me PERFORMER Leng Tch'e INDEX 01 08:10:43 TRACK 08 AUDIO TITLE The Happy Retard PERFORMER Leng Tch'e INDEX 01 09:42:27 TRACK 09 AUDIO TITLE Popularity Contest PERFORMER Leng Tch'e INDEX 01 10:52:04 TRACK 10 AUDIO TITLE Sleazebag PERFORMER. PERFORMER Leng Tch'e TITLE The Process Of Elimination FILE LENG TCH'E - The Process Of. Country of origin: Belgium. The band's name is derived from ling-chi 凌遲, a method of torture and execution officially employed in China until 1905 and also known as slow slicing or, more dramatically, death by a thousand cuts - which is also the title of Leng Tch'e's debut album. After Sven de Caluwé's departure in 2007, none of the original members are involved in the band anymore

Video

Related to Leng Tch'e - Death By A Thousand Cuts
Karl Wolf Featuring Three 6 Mafia - Fuck Shit Up
Karl Wolf Featuring Three 6 Mafia - Fuck Shit Up Album
Evil Inside - ...On The Graveyard
Evil Inside - ...On The Graveyard Album
Hadez - Old Blasphemies (Demo 1999)
Hadez - Old Blasphemies (Demo 1999) Album
Wolf & Cub - Thousand Cuts / Targets
Wolf & Cub - Thousand Cuts / Targets Album
Acolyte - Leng
Acolyte - Leng Album
Corrupted - Paso Inferior
Corrupted - Paso Inferior Album
Skarp / ¡¿Human Error?! - Eat Shit / Sickened Chain
Skarp / ¡¿Human Error?! - Eat Shit / Sickened Chain Album
Inanna - Transfigured In A Thousand Delusions
Inanna - Transfigured In A Thousand Delusions Album
Deathevokation / Graveyard - Deathevokation / Graveyard
Deathevokation / Graveyard - Deathevokation / Graveyard Album